#TITLE:Moon;
#SUBTITLE:~Sky Fid original~;
#ARTIST:Dj TAKA feat. Erika Mochizuki;
#TITLETRANSLIT:;
#SUBTITLETRANSLIT:;
#ARTISTTRANSLIT:;
#CREDIT:;
#BANNER:Moon -banner-.png;
#BACKGROUND:Moon -bg-.png;
#LYRICSPATH:;
#CDTITLE:sky fid.png;
#MUSIC:BeatmaniaIIDX 13 - MOON.mp3;
#OFFSET:-2.025;
#SAMPLESTART:13.630;
#SAMPLELENGTH:12.000;
#SELECTABLE:YES;
#BPMS:0.000=156.004;
#STOPS:;
#BGCHANGES:;
// cache tags:
#FIRSTBEAT:16.000;
#LASTBEAT:300.000;
#SONGFILENAME:Songs/Chilean Keyboard Megapack 3/(Sky Fid) Moon/Moon.sm;
#HASMUSIC:1;
#HASBANNER:1;
#MUSICLENGTH:119.066;
// end cache tags

//---------------dance-single - ----------------
#NOTES:
     dance-single:
     :
     Challenge:
     12:
     1.000,1.000,1.000,0.722,1.000,848.000,192.000,86.000,0.000,8.000:
0000
0000
0000
0000
,
0000
0000
0000
0000
,
0000
0000
0000
0000
,
0000
0000
0000
0000
,
1010
0000
0010
0000
0101
0000
0010
1000
0100
1000
0010
0000
0110
0000
0000
0000
,
0011
0000
0001
0000
0110
0000
0010
0100
0001
0010
0100
1000
0001
0010
0000
0000
,
0101
0000
0010
0000
1001
0000
0100
0010
0000
1000
0010
0100
0001
1000
0100
0010
,
2002
0000
0000
3003
0000
0000
0202
0000
0000
0303
0000
0000
2200
0000
0000
3300
0001
0000
0000
0000
0100
0000
0010
0000
0100
0000
0001
0000
1000
0000
0100
0000
,
1001
0000
0001
1100
0000
0100
0001
0000
0001
1000
0100
0010
0100
1000
0010
0100
,
1010
0000
0010
0101
0000
0100
0001
0000
1000
0010
1000
0001
0100
0001
0010
0001
,
1000
1000
0010
0010
0100
0001
0010
0001
1100
0010
0001
0000
0101
0000
1000
0010
,
0201
0000
0301
1000
0120
0000
0031
0100
0001
0010
1000
0010
0001
2000
0001
0100
,
3011
0000
0001
0000
0210
0000
0301
1000
0010
0100
0010
0001
1000
0100
0010
0100
,
0011
1000
0010
1100
0001
0100
2020
0000
3030
0100
0001
0000
1010
0100
0000
0000
,
0001
1000
0010
1000
0110
0001
1000
0001
0100
0010
1000
0100
1001
0010
1000
0001
,
0100
0001
0010
0100
2000
0000
0100
0000
3011
0000
0001
0000
1000
0010
1000
0001
,
1010
0100
0001
0100
0000
0001
0100
0000
1000
0010
1000
0100
0010
0001
1000
0010
,
0101
0010
1000
0001
0000
0010
1000
0000
0100
0001
0100
1000
0010
0001
0010
1000
,
0100
0100
0010
0010
0001
1000
0010
1000
0011
0100
1000
0000
1010
0000
0100
0010
,
2001
0000
3100
0010
0102
0000
1003
0010
1000
0100
0001
0100
1000
0002
1000
0010
,
1103
0000
0010
0000
0201
0000
0301
0100
0010
0100
1000
0001
0010
1000
0001
0100
,
1001
0100
1000
0101
0010
1000
0022
0000
0033
1000
0010
0000
1001
0100
0000
0000
,
0001
0010
0100
1000
0011
1000
0001
1000
0100
0010
0100
1000
0101
0010
1000
0010
,
0202
0000
0000
0303
0000
0000
2020
0000
0000
3030
0000
0000
2002
0000
0000
0000
0000
3003
0000
0000
0110
0000
0000
0000
1001
0000
0100
0000
0001
0000
0100
0000
,
1010
0000
1000
0000
0010
0000
1100
0001
1100
0000
0001
0000
1000
0000
0011
0000
,
0100
0000
0011
0000
1000
0000
0101
0010
0101
0000
0001
0000
0010
0000
1001
0000
,
0010
0000
1001
0000
0100
0000
0110
0001
0110
0000
1000
0000
0010
0000
1100
0000
,
0010
0000
1100
0000
0001
0000
1001
0100
1001
0000
0010
1000
0100
0010
0001
1000
,
0011
0000
1000
0000
0110
0000
0001
0010
0100
0010
0001
0000
0110
0000
0001
0000
,
1100
0000
0010
0000
1001
0000
0100
1000
0100
0001
1000
0000
1010
0000
0010
0000
,
0101
0000
0001
0000
1001
0000
0100
0001
0010
0100
1000
0000
0001
0100
1010
0100
,
2002
0000
0013
3000
0101
0000
0022
0000
0033
0000
1100
0000
0001
0010
0100
1000
,
0220
0000
0330
0001
0000
0000
0100
0000
0000
1000
0000
0000
0100
0000
0000
0001
0000
0000
2000
0000
3000
0100
0000
0000
0001
0000
0000
1000
0000
0000
0010
0000
0000
0100
0000
0000
2000
0000
3000
0001
0000
0000
0010
0000
0000
0100
0000
0000
,
0001
0100
0010
1000
0010
0100
1000
0010
0100
1000
0001
0010
1000
0001
0010
0100
,
2000
0000
3000
0010
0000
0000
0100
0000
0000
0010
0000
0000
1000
0000
0000
0001
0000
0000
0020
0000
0030
0100
0000
0000
0001
0000
0000
1000
0000
0000
0010
0000
0000
0001
0000
0000
2000
0000
3000
0010
0000
0000
2000
0000
3000
0001
0000
0000
,
0100
0000
0000
0001
0000
0000
0020
0000
0030
0001
0000
0000
0200
0000
0300
1000
0000
0000
0001
0000
0000
0010
0000
0000
0200
0000
0300
0001
0000
0000
0020
0000
0030
1000
0000
0000
0010
0000
0000
0001
0000
0000
0100
0000
0000
0010
0000
0000
,
2200
0000
0000
3301
0000
0000
0010
0000
0000
1000
0000
0000
0001
0000
0000
0100
0000
0000
0020
0000
0030
0001
0000
0000
2000
0000
3000
0100
0000
0000
0010
0000
0000
0100
0000
0000
0001
0000
0000
0100
0000
0000
1000
0000
0000
0010
0000
0000
,
0100
0000
0000
1000
0000
0000
0001
0000
0000
0010
0000
0000
2000
0000
3000
0010
0000
0000
0001
0000
0000
0010
0000
0000
0200
0000
0300
0001
0000
0000
0010
0000
0000
0100
0000
0000
0002
0000
0003
1000
0000
0000
0010
0000
0000
0001
0000
0000
,
1000
0000
0000
0100
0000
0000
0020
0000
0030
0001
0000
0000
0020
0000
0030
1000
0000
0000
0002
0000
0003
0100
0000
0000
2000
0000
3000
0001
0000
0000
0200
0000
0300
1000
0000
0000
0002
0000
0003
0010
0000
0000
2000
0000
3000
0010
0000
0000
,
2002
0000
0000
0000
3003
0000
0000
0000
0000
0001
0000
0000
0110
0000
0000
0000
0000
0000
1001
0000
0000
0000
0000
0000
0000
0000
0000
0000
0000
0000
1010
0000
0000
0100
0000
0000
0001
0000
0000
0100
0000
0000
0011
0000
0000
0100
0000
0000
,
0011
0000
0000
0000
0000
0000
0010
1000
0101
0000
0010
0000
1100
0000
0011
0000
,
0120
1030
0101
0010
1100
0110
0011
1001
,
0001
0100
0010
1000
0011
1001
0110
1010
,
1000
0101
0010
0110
0001
0010
1100
0102
,
0100
0003
0000
0000
1000
0000
0000
0000
0001
0000
0000
0000
0110
0000
0000
0000
0010
0000
1000
0000
0001
0000
0000
0000
1000
0000
0100
0000
0010
0000
0001
0000
,
1200
0000
0000
0000
0001
0300
0000
0000
1010
0000
0000
0000
1000
0000
0000
0000
1000
0000
0000
0000
0110
0000
0000
0000
1000
0000
0000
0000
1002
0000
0000
0000
,
1000
0000
0013
0000
0010
0000
1010
0000
1000
0000
0011
0000
0001
1000
0100
0000
,
1001
0100
0100
0001
1100
1000
1010
0110
,
1001
0000
0000
0000
0100
1000
0011
0000
0000
1000
0100
0010
0001
1000
0010
1000
,
0210
0000
0301
0000
1100
0000
0010
0000
1001
0100
0001
0000
0100
0000
1001
0000
,
1010
0000
1001
0000
0101
0000
0001
0000
0011
0100
1000
0000
0001
0000
0100
0000
,
1100
0000
0101
0000
1001
0000
1100
0001
0100
0010
0001
0000
0010
0000
0100
0000
,
1001
0000
0011
0000
1100
0000
0001
0010
0001
1000
0001
0000
0100
1000
0100
0010
,
2001
0000
3001
0000
1000
0000
0011
0000
0100
0010
0001
0000
0011
0000
1020
0000
,
0100
0030
1000
0100
0001
0100
1000
0000
0001
0000
1001
0000
0100
0010
1000
0000
,
1100
0000
0010
0000
1010
0000
0010
0000
1001
0000
0101
0000
1000
0001
0010
0001
,
0210
0000
0001
0000
0310
0000
1001
0000
0100
0001
1000
0010
0001
0010
1000
0001
,
1100
0000
0000
1001
0000
0000
0101
0000
0000
1010
0000
0000
0110
0000
0000
1001
0000
0000
1100
0000
0000
0001
0010
0100
,
1000
0000
0000
0000
0100
0000
1000
0000
0000
0000
0010
0000
2002
0000
0000
3003
0010
0000
1000
0000
0001
0000
0100
0000
0001
0000
0010
0000
0100
0000
1000
0000
,
1001
0000
0011
0100
0000
0011
1000
0000
1000
0001
1000
0100
0010
0001
0100
0010
,
0110
0000
1100
0010
0000
1100
0001
0000
0001
1000
0001
0010
0100
1000
0001
0100
,
0010
0010
1000
1000
0100
0010
0001
0100
1010
0100
0001
0000
0101
0000
1000
0001
,
0210
0000
0301
0010
1002
0000
0103
0010
1100
0001
0010
0100
1000
0002
0100
0010
,
1103
0000
0010
0000
2010
0000
3001
0100
1000
0001
0010
1000
0010
0100
0001
1000
,
0110
0000
0001
0000
1000
0000
0011
0000
1000
0000
0001
0000
0220
0000
0000
0330
0000
0000
0001
0000
0100
0000
0000
0000
0011
0000
1000
0000
0000
0000
0000
0000
,
0100
0010
0001
1000
0011
0100
0011
1000
0100
0010
0100
1000
0011
0100
0011
1000
,
0010
1000
0100
0010
0002
0000
0010
0000
1013
0000
1000
0000
0001
1000
0010
0100
,
1001
0100
0001
1000
0000
1000
0011
0000
0100
1000
0100
0001
1000
0100
0010
0001
,
1100
0010
1000
0001
0000
0001
0110
0000
1000
0100
0010
0100
0010
0001
1000
0001
,
0010
0010
0100
0100
1000
0001
1000
0010
0101
0010
1000
0000
0110
0000
0001
0100
,
1020
0000
1030
0100
0012
0000
0103
0010
1001
0100
0010
0100
0001
2000
0100
0010
,
3101
0000
0001
0000
0120
0000
1030
0100
0001
1000
0010
0001
0010
0100
1000
0001
,
1100
0000
0001
0000
0100
0000
1001
0000
0010
0000
0100
0000
0022
0000
0000
0033
0000
0000
1000
0000
0010
0000
0000
0000
0101
0000
1000
0000
0000
0000
0000
0000
,
0010
0001
1000
0001
1100
0010
1100
0001
0010
0100
0010
0001
1100
0001
1100
0010
,
2002
0000
0000
3000
0003
0000
0202
0000
0000
0303
0000
0000
2002
0000
0000
0000
3003
0000
0000
0000
0110
0000
0000
0000
0001
0000
0010
0000
0100
0000
1000
0000
,
1001
0000
0000
0000
;
